osu file format v14

[General]
AudioFilename: Koven - Get This Right.mp3
AudioLeadIn: 1500
PreviewTime: 93028
Countdown: 0
SampleSet: Soft
StackLeniency: 0.3
Mode: 0
LetterboxInBreaks: 0
WidescreenStoryboard: 0

[Editor]
Bookmarks: 27010,49336,71661,93987
DistanceSpacing: 1
BeatDivisor: 4
GridSize: 4
TimelineZoom: 1.1

[Metadata]
Title:Get This Right
TitleUnicode:Get This Right
Artist:Koven
ArtistUnicode:Koven
Creator:Aiceo
Version:Priti's Normal
Source:
Tags:toybot dnb drum and bass edm appleeaterx ProfessionalBox Sharkie Priti guineaQ byfar
BeatmapID:771299
BeatmapSetID:347947

[Difficulty]
HPDrainRate:4
CircleSize:4
OverallDifficulty:4
ApproachRate:5
SliderMultiplier:2
SliderTickRate:1

[Events]
//Background and Video events
0,0,"holding_for_so_long_by_nanomortis-d8m6dkm.jpg",0,0
//Break Periods
//Storyboard Layer 0 (Background)
//Storyboard Layer 1 (Fail)
//Storyboard Layer 2 (Pass)
//Storyboard Layer 3 (Foreground)
//Storyboard Sound Samples

[TimingPoints]
4685,697.674418604651,4,2,0,50,1,0
71661,-100,4,2,1,70,0,0
93987,-100,4,2,1,70,0,1
116312,-100,4,2,1,70,0,0

[Colours]
Combo1 : 230,176,96
Combo2 : 240,119,113

[HitObjects]
442,134,27010,6,0,B|391:130|342:142,1,100,,,0:0:0:0:
254,190,27708,2,0,B|203:193|154:181,1,100,,,0:0:0:0:
108,162,28231,2,0,B|92:222|92:222|113:275,1,100,,,0:0:0:0:
284,348,29278,2,0,L|346:343,1,50,,,0:0:0:0:
354,298,29626,1,0,0:0:0:0:
354,247,29801,6,0,B|254:221|153:241,1,200,,,0:0:0:0:
85,311,30847,1,0,0:0:0:0:
58,214,31196,2,0,L|55:152,1,50,,,0:0:0:0:
129,96,31719,1,0,0:0:0:0:
129,96,31894,2,0,B|187:116|247:108,1,100,,,0:0:0:0:
309,52,32591,6,0,B|341:179|286:120|309:248,1,200,,,0:0:0:0:
373,326,33638,2,0,B|395:320|416:327|431:341,1,50,,,0:0:0:0:
462,361,33987,2,0,B|450:326|451:289|462:257,1,100,,,0:0:0:0:
496,227,34510,2,0,L|489:121,1,100,,,0:0:0:0:
466,82,35033,1,0,0:0:0:0:
370,111,35382,6,0,L|168:104,1,200,,,0:0:0:0:
222,297,36778,2,0,L|424:290,1,200,,,0:0:0:0:
457,93,38173,6,0,B|427:70|388:68|356:82,1,100,,,0:0:0:0:
322,109,38696,1,0,0:0:0:0:
322,109,38871,2,0,L|161:97,1,150,,,0:0:0:0:
135,64,39568,2,0,B|155:163|114:139|92:182|92:223|120:245|144:237|154:214|152:203|146:190|131:184|120:187|114:190,1,200,,,0:0:0:0:
194,283,40615,2,0,B|213:284|231:280|247:273,1,50,,,0:0:0:0:
289,293,40964,6,0,B|272:177|311:66,1,200,,,0:0:0:0:
332,55,41836,1,0,0:0:0:0:
236,25,42184,1,0,0:0:0:0:
236,25,42359,2,0,L|27:33,1,200,,,0:0:0:0:
59,129,43405,2,0,L|131:138,1,50,,,0:0:0:0:
153,112,43754,6,0,B|190:239|122:182|158:306,1,200,,,0:0:0:0:
247,353,44801,1,0,0:0:0:0:
247,353,44975,2,0,B|329:343|409:349,1,150,,,0:0:0:0:
478,291,45847,2,0,L|488:185,1,100,,,0:0:0:0:
413,123,46545,6,0,L|198:136,1,200,,,0:0:0:0:
118,166,47591,2,0,B|122:189|118:211|109:230,1,50,,,0:0:0:0:
81,253,47940,2,0,B|191:237|295:266,1,200,,,0:0:0:0:
323,286,48812,2,0,B|345:290|367:283|383:270,2,50,4|4|4,3:0|3:0|3:0,0:0:0:0:
312,335,49336,6,0,L|144:342,1,150,4|4,3:0|3:0,0:0:0:0:
120,313,50033,2,0,L|108:189,1,100,,,0:0:0:0:
128,166,50557,1,4,3:0:0:0:
128,166,50731,2,0,B|232:167|332:187,1,200,4|0,3:0|0:0,0:0:0:0:
416,230,51778,2,0,B|429:193|424:155,1,50,0|4,0:0|3:0,0:0:0:0:
440,133,52126,6,0,L|449:332,1,200,4|0,3:0|0:0,0:0:0:0:
409,363,52998,1,0,0:0:0:0:
318,319,53347,1,0,0:0:0:0:
318,319,53522,2,0,B|213:319|113:337,1,200,,,0:0:0:0:
83,300,54394,2,0,B|50:300|21:286,2,50,4|4|4,3:0|3:0|3:0,0:0:0:0:
111,258,54917,6,0,B|129:205|129:205|112:95,1,150,4|4,3:0|3:0,0:0:0:0:
86,70,55615,1,4,3:0:0:0:
172,19,55964,2,0,L|251:27,1,50,4|4,3:0|3:0,0:0:0:0:
263,51,56312,2,0,L|382:37,1,100,,,0:0:0:0:
455,76,57010,1,0,0:0:0:0:
455,76,57184,2,0,B|458:114|451:151|435:182,1,100,4|0,3:0|0:0,0:0:0:0:
404,212,57708,6,0,B|256:201|256:201|201:229,1,200,4|0,3:0|0:0,0:0:0:0:
133,289,58754,1,0,0:0:0:0:
41,248,59103,2,0,B|28:189|28:130,1,100,,,0:0:0:0:
34,99,59626,1,0,0:0:0:0:
55,53,59801,2,0,L|180:47,1,100,4|4,3:0|3:0,0:0:0:0:
238,102,60499,6,0,L|216:223,1,100,4|0,3:0|0:0,0:0:0:0:
250,296,61196,1,0,0:0:0:0:
250,296,61371,2,0,B|301:296|348:283,1,100,,,0:0:0:0:
387,251,61894,2,0,B|429:233|477:249|502:287|503:327,2,150,,,0:0:0:0:
312,184,63289,2,0,L|321:78,1,100,,,0:0:0:0:
294,41,63812,2,0,B|255:30|217:38|187:60,1,100,,,0:0:0:0:
154,79,64335,2,0,L|93:73,1,50,2|0,0:0|0:0,0:0:0:0:
65,37,64684,2,0,B|83:171|83:171|29:222,1,200,0|4,0:0|3:0,0:0:0:0:
2,253,65557,1,4,3:0:0:0:
48,341,65905,1,0,0:0:0:0:
48,341,66080,6,0,L|250:338,1,200,4|2,3:0|3:0,0:0:0:0:
328,278,67126,2,0,L|336:223,1,50,2|0,3:0|3:0,0:0:0:0:
316,181,67475,2,0,B|282:162|243:160|209:172,1,100,0|2,0:0|3:0,0:0:0:0:
125,203,68173,2,0,L|106:88,1,100,0|0,3:0|3:0,0:0:0:0:
256,192,68871,12,0,70964,1:0:0:0:
48,155,71661,6,0,L|155:150,1,100,4|0,1:0|1:0,0:0:0:0:
227,211,72359,2,0,B|204:286|199:362,2,150,8|8|8,0:0|0:0|0:0,0:0:0:0:
308,153,73754,1,0,1:0:0:0:
308,153,73929,2,0,B|311:97|297:45,1,100,8|0,0:0|0:0,0:0:0:0:
255,28,74452,6,0,L|132:38,1,100,0|0,1:0|1:0,0:0:0:0:
77,99,75150,2,0,B|66:157|67:213,1,100,8|0,0:0|0:0,0:0:0:0:
100,235,75673,2,0,B|120:270|124:309|113:344,1,100,8|0,0:0|0:0,0:0:0:0:
77,363,76196,2,0,L|269:350,1,150,8|8,0:0|0:0,0:0:0:0:
311,300,77068,1,0,0:0:0:0:
311,300,77243,6,0,L|428:315,1,100,0|0,1:0|1:0,0:0:0:0:
461,227,77940,2,0,B|485:175|488:119|474:68,2,150,8|8|8,0:0|0:0|0:0,0:0:0:0:
414,207,79161,2,0,B|363:207|314:216,1,100,0|8,0:0|0:0,0:0:0:0:
267,233,79684,1,0,0:0:0:0:
185,174,80033,6,0,B|171:103|171:103|198:67,1,100,0|0,1:0|1:0,0:0:0:0:
277,36,80731,2,0,L|408:44,1,100,8|0,0:0|0:0,0:0:0:0:
418,69,81254,2,0,L|434:183,1,100,8|0,0:0|0:0,0:0:0:0:
398,205,81778,2,0,B|380:292|387:379,1,150,8|8,0:0|0:0,0:0:0:0:
484,365,82650,1,0,0:0:0:0:
484,365,82824,6,0,B|486:313|477:264,1,100,4|0,1:0|1:0,0:0:0:0:
398,205,83522,2,0,L|408:143,1,50,8|0,0:0|0:0,0:0:0:0:
373,61,84045,2,0,L|248:66,1,100,8|0,0:0|0:0,0:0:0:0:
239,101,84568,2,0,B|188:132|123:113|95:62,1,150,8|8,0:0|0:0,0:0:0:0:
77,33,85266,1,0,0:0:0:0:
18,113,85615,6,0,L|30:235,1,100,0|0,1:0|1:0,0:0:0:0:
103,277,86312,2,0,B|132:275|159:287,2,50,8|0|0,0:0|0:0|0:0,0:0:0:0:
77,320,86836,2,0,B|166:331|251:309,1,150,8|8,0:0|0:0,0:0:0:0:
311,262,87708,2,0,L|306:205,1,50,0|8,0:0|0:0,0:0:0:0:
345,119,88231,1,0,0:0:0:0:
345,119,88405,6,0,L|481:128,1,100,4|0,1:2|1:0,0:0:0:0:
507,203,89103,2,0,B|503:279|483:350,2,150,8|8|8,0:0|0:0|0:0,0:0:0:0:
407,217,90498,2,0,B|381:218|356:211|335:198,1,50,0|8,0:0|0:0,0:0:0:0:
264,173,91022,1,0,0:0:0:0:
264,173,91196,6,0,B|215:171|168:181|128:202,1,100,0|0,1:0|1:0,0:0:0:0:
73,145,91894,2,0,L|71:31,1,100,8|0,0:0|0:0,0:0:0:0:
116,23,92417,2,0,L|244:34,1,100,8|0,0:0|0:0,0:0:0:0:
250,67,92940,2,0,B|288:73|324:61|350:38,1,100,8|0,0:0|1:0,0:0:0:0:
472,196,93987,6,0,B|444:199|417:190|397:175,1,50,4|0,1:0|0:0,0:0:0:0:
383,158,94336,1,0,1:0:0:0:
305,220,94684,2,0,L|315:329,1,100,8|0,0:0|0:0,0:0:0:0:
272,348,95208,2,0,B|235:353|200:347|170:332,1,100,8|0,0:0|0:0,0:0:0:0:
128,354,95731,2,0,B|142:298|125:242|88:204,1,150,8|8,0:0|0:0,0:0:0:0:
33,135,96603,1,0,0:0:0:0:
33,135,96778,6,0,L|38:81,2,50,0|0|0,1:0|0:0|1:0,0:0:0:0:
131,120,97475,2,0,B|190:121|248:130,1,100,8|0,0:0|0:0,0:0:0:0:
269,159,97998,2,0,B|326:164|380:148|422:116,2,150,8|8|8,0:0|0:0|0:0,0:0:0:0:
186,216,99394,1,0,0:0:0:0:
186,216,99568,6,0,L|194:318,1,100,0|0,1:0|1:0,0:0:0:0:
283,360,100266,2,0,L|301:253,1,100,8|0,0:0|0:0,0:0:0:0:
327,219,100789,2,0,B|412:196|387:242|480:216,1,150,8|8,0:0|0:0,0:0:0:0:
476,117,101661,2,0,B|481:96|476:75|464:60,1,50,0|8,0:0|0:0,0:0:0:0:
376,31,102184,1,0,0:0:0:0:
376,31,102359,6,0,L|259:38,1,100,0|0,1:0|1:0,0:0:0:0:
194,95,103057,2,0,B|139:100|88:79,1,100,8|0,0:0|0:0,0:0:0:0:
53,52,103580,2,0,B|24:89|25:140|53:177|91:193,1,150,8|8,0:0|0:0,0:0:0:0:
168,218,104452,1,0,0:0:0:0:
168,218,104626,2,0,L|310:213,1,100,8|0,0:0|0:0,0:0:0:0:
311,188,105150,6,0,L|429:200,1,100,4|0,1:0|1:0,0:0:0:0:
441,293,105847,2,0,L|283:307,2,150,8|8|8,0:0|0:0|0:0,0:0:0:0:
508,218,107243,2,0,B|513:187|512:157,1,50,0|8,0:0|0:0,0:0:0:0:
462,81,107766,1,0,0:0:0:0:
462,81,107940,6,0,B|405:72|349:71,1,100,0|0,1:0|1:0,0:0:0:0:
274,120,108638,2,0,B|191:134|110:138,2,150,8|8|8,0:0|0:0|0:0,0:0:0:0:
359,171,110033,1,0,0:0:0:0:
359,171,110208,2,0,L|339:276,1,100,8|0,0:0|0:0,0:0:0:0:
304,304,110731,6,0,L|184:309,1,100,4|0,1:2|1:0,0:0:0:0:
110,271,111429,2,0,B|94:220|103:167,1,100,8|0,0:0|0:0,0:0:0:0:
125,127,111952,2,0,B|163:140|203:127|227:99,1,100,8|0,0:0|0:0,0:0:0:0:
252,70,112475,2,0,B|293:69|330:80|362:99,1,100,8|0,0:0|0:0,0:0:0:0:
388,122,112998,1,8,0:0:0:0:
434,210,113347,1,0,0:0:0:0:
434,210,113522,6,0,L|427:328,1,100,0|0,1:0|1:0,0:0:0:0:
335,347,114219,2,0,B|279:329|221:331,1,100,8|0,0:0|0:0,0:0:0:0:
189,347,114743,2,0,B|155:378|98:368|75:319|91:279,1,150,8|8,0:0|0:0,0:0:0:0:
114,196,115615,2,0,L|101:142,2,50,0|8|4,1:0|0:0|3:0,0:0:0:0:
209,225,116312,1,6,0:2:0:0:
